<?xml version="1.0" standalone="no"?>
<!DOCTYPE svg PUBLIC "-//W3C//DTD SVG 1.1//EN" "http://www.w3.org/Graphics/SVG/1.1/DTD/svg11.dtd">
<svg xmlns="http://www.w3.org/2000/svg">
<metadata>Generated by Fontastic.me</metadata>
<defs>
<font id="online-reader" horiz-adv-x="512">
<font-face font-family="online-reader" units-per-em="512" ascent="480" descent="-32"/>
<missing-glyph horiz-adv-x="512" />

<glyph glyph-name="ancillary" unicode="&#97;" d="M45 376l0-301 407 0 0 301z m392-286l-377 0 0 271 377 0z m-15 317l-347 0 0-15 347 0z m-30 30l-287 0 0-15 287 0z m-172-196l60 0 0 75-60 0z m0-105l60 0 0 75-60 0z m-100 105l61 0 0 75-61 0c-1 0-1-75 0-75z m0-105l61 0 0 75-61 0c-1 0-1-75 0-75z m196 180l0-75 60 0 0 75z m0-180l60 0 0 75-60 0z"/>
<glyph glyph-name="ppt" unicode="&#98;" d="M30 447l0-16 33 0 0-301 184 0 0-49-133 0 0-16 285 0 0 16-134 0 0 49 184 0 0 301 33 0 0 16z m402-301l-352 0 0 285 351 0 0-285z m-202 235l-99 0 0-101 101 0z m-16-84l-66 0 0 67 66 0z m167 16l-117 0 0-16 117 0z m0 68l-117 0 0-17 117 0z m0-33l-117 0 0-17 117 0z m0-101l-250 0 0-17 251 0z m0-50l-250 0 0-16 251 0z"/>
<glyph glyph-name="citation" unicode="&#100;" d="M429 331l-83-84c-12-12-21-18-39-14l113 113c11 11 11 27 0 38l-19 20c-11 10-28 10-38 0l-113-113c-5 18 1 27 14 39l82 84c18 18 49 18 67 0l16-16c18-19 18-49 0-67z m-129-46c4-5 4-12 0-17l-59-59c-5-4-12-4-17 0-4 5-4 12 0 17l59 59c5 4 12 4 17 0z m-195-175l20-20c11-10 27-10 38 0l113 113c4-18-2-27-14-39l-83-83c-18-18-48-18-66 0l-17 17c-18 18-18 48 0 66l83 83c12 12 21 18 39 14l-113-113c-10-11-10-28 0-38z"/>
<glyph glyph-name="clinical-cases" unicode="&#104;" d="M346 166l0 37c0 8-6 18-18 23-16 7-55 21-80 27-1 0-3 0-3 9 0 8 3 14 6 20 3 6 7 18 8 27 3 4 9 12 12 28 3 14 2 20 0 24l0 3c0 3 0 22 3 34 2 9 0 28-13 45-8 9-23 22-52 24l-15 0c-27-2-42-15-49-24-12-17-15-36-14-45 3-14 3-31 3-34l0-1c-1-5-3-11 0-24 3-17 8-24 12-29 2-10 5-21 8-27 1-4 3-12 3-21 0-9 0-9-2-9-25-9-65-23-80-30-12-5-15-14-15-23l0-37c0-6 3-15 15-15l112 0c9 0 15 0 15 0l3 0c0 0 6 0 16 0l112 0c10 3 13 12 13 18z m-15 0l-256 0 0 37c0 5 2 6 6 9 14 6 55 21 79 27 12 5 12 15 12 25 0 12-2 19-5 27-3 4-6 15-6 22l0 5-3 3c-1 1-6 7-9 21-1 10-1 13 0 15 0 1 2 1 2 3 1 7 0 29-3 39-2 5 0 20 10 33 6 8 18 17 39 18l14 0c18-1 30-7 39-18 11-12 11-27 11-33-2-12-5-32-3-39 0-2 0-2 1-3 2-2 2-5 0-15-3-14-8-20-9-21l-3-3 0-5c-2-9-5-18-6-22-3-8-8-17-8-27 0-8 0-20 14-25 24-7 62-19 78-27 6-3 8-7 8-9z m61-46l0 61-16 0 0-61-60 0 0-15 60 0 0-60 16 0 0 60 60 0 0 15z"/>
<glyph glyph-name="font-decrease" unicode="&#108;" d="M422 414l-332 0c-33 0-60-27-60-60l0-196c0-33 27-60 60-60l332 0c33 0 60 27 60 60l0 196c0 33-27 60-60 60z m42-247c0-30-24-54-56-54l-304 0c-30 0-56 24-56 54l0 178c0 30 24 54 56 54l306 0c30 0 55-24 55-54l0-178z m-313 66l210 0 0 46-210 0z"/>
<glyph glyph-name="font-increase" unicode="&#109;" d="M422 414l-332 0c-33 0-60-27-60-60l0-196c0-33 27-60 60-60l332 0c33 0 60 27 60 60l0 196c0 33-27 60-60 60z m45-247c0-30-26-54-56-54l-310 0c-32 0-56 24-56 54l0 178c0 30 26 54 56 54l309 0c31 0 55-24 55-54l0-178z m-196 172l-30 0 0-75-75 0 0-31 75 0 0-75 30 0 0 75 75 0 0 31-75 0z"/>
<glyph glyph-name="links" unicode="&#113;" d="M408 392l-15 15c-26 25-68 25-93 0l-61-61 9-9 62 62c20 20 53 20 74 0l17-17c19-19 19-52 0-73l-88-88c-19-19-52-19-74 0l-9-9c12-12 31-19 47-19 17 0 33 6 47 19l87 88c23 24 23 66-3 92z m-206-281c-9-9-23-15-36-15-14 0-27 6-36 15l-17 17c-20 20-20 53 0 74l87 87c20 20 53 20 74 0l17-16 9 9-17 16c-25 26-68 26-93 0l-86-87c-26-26-26-68 0-94l16-16c13-12 29-20 47-20 18 0 35 8 47 20l57 57-9 9z"/>
<glyph glyph-name="images" unicode="&#114;" d="M407 346l-62 0-36 36c-6 7-14 10-21 10l-76 0c-9 0-16-5-22-10l-36-36-64 0c-16 0-30-13-30-30l0-180c0-17 14-31 30-31l317 0c16 0 30 14 30 31l0 180c0 17-14 30-30 30z m15-210c0-10-6-16-15-16l-317 0c-9 0-15 6-15 16l0 180c0 9 6 15 15 15l70 0 4 5 18 18 0-2 17 18c3 3 7 5 10 5l76 0c4 0 7-2 10-5l36-36 5-4 69 0c9 0 15-6 15-15z m-174 195c-54 0-97-43-97-98 0-54 43-97 97-97 55 0 98 43 98 97 0 55-43 98-98 98z m0-180c-45 0-82 37-82 82 0 46 37 83 82 83 46 0 83-37 83-83 0-45-37-82-83-82z m0 150c-37 0-67-30-67-68 0-37 30-67 67-67 38 0 68 30 68 67 0 38-30 68-68 68z m0-120c-28 0-52 24-52 52 0 29 24 53 52 53 29 0 53-24 53-53 0-28-24-52-53-52z"/>
<glyph glyph-name="more" unicode="&#65;" d="M283 435l-39 0c-18 0-32-15-32-33l0-36c0-20 17-35 35-35l33 0c20 0 36 17 36 35l0 36c0 18-15 33-33 33z m18-77c0-7-21-13-13-13l-50 0c-8 0-14 6-14 13l0 50c0 6 5 12 11 12l56 0c6 0 10-4 10-12 2 0 2-50 0-50z m-18-58l-39 0c-18 0-32-15-32-33l0-37c0-19 17-34 35-34l33 0c20 0 36 16 36 34l0 37c0 18-15 33-33 33z m18-77c0-8-21-14-13-14l-50 0c-8 0-14 6-14 14l0 51c0 6 5 12 11 12l56 0c6 0 10-4 10-12 2 0 2-51 0-51z m-18-57l-39 0c-18 0-32-15-32-33l0-37c0-19 17-34 35-34l33 0c20 0 36 16 36 34l0 37c0 18-15 33-33 33z m18-77c0-8-21-14-13-14l-50 0c-8 0-14 6-14 14l0 51c0 6 5 12 11 12l56 0c6 0 10-4 10-12 2-1 2-51 0-51z"/>
<glyph glyph-name="page-nav-left" unicode="&#68;" d="M205 256l153 155c9 9 9 26 0 35-9 9-25 9-34 0l-170-173c-9-9-9-26 0-35l171-172c9-9 26-9 35 0 9 9 9 26 0 35z"/>
<glyph glyph-name="page-nav-right" unicode="&#69;" d="M358 273l-171 171c-9 9-26 9-35 0-9-9-9-25 0-34l155-154-153-155c-9-9-9-26 0-35 9-9 25-9 34 0l172 172c9 10 9 26-2 35z"/>
<glyph glyph-name="questionnaire" unicode="&#70;" d="M136 256l30 0 0 30-30 0z m0-136l30 0 0 31-30 0z m301 270c0 0 7 45-45 45-41 0-91 0-91 0-4 21-22 38-45 38-23 0-41-17-45-38l-91 0c0 0-45 3-45-45 0-68 0-301 0-301 0 0-7-45 45-45l272 0c52 0 45 45 45 45z m-219 6l8 5 0 27c0 16 13 30 30 30 17 0 30-14 30-30l0-27 8-5c15-9 25-21 33-36l-140 0c6 15 16 29 31 36z m174-336l-272 0c-36 0-30 30-30 30 0 0 0 247 0 302 0 34 30 30 30 30l91 0 0-11c-24-13-41-36-45-65l180 0c-4 27-21 52-45 65l0 9c0 0 57 0 91 0 33 0 30-31 30-31l0-299c0 0 4-30-30-30z m-145 45l-27 28-9-11 36-36 84 84-9 11z m-27 107l36 36 36-36 9 9-37 37 36 36-9 9-37-36-36 36-7-11 36-36-36-35z"/>
<glyph glyph-name="questionnaire-with-rationale1" unicode="&#71;" d="M437 390c0 0 7 45-45 45-41 0-91 0-91 0-4 21-22 38-45 38-23 0-41-17-45-38l-91 0c0 0-45 3-45-45 0-68 0-301 0-301 0 0-7-45 45-45l272 0c52 0 45 45 45 45z m-219 6l8 5 0 27c0 16 13 30 30 30 17 0 30-14 30-30l0-27 8-5c15-9 25-21 33-36l-140 0c6 15 16 29 31 36z m174-336l-272 0c-36 0-30 30-30 30 0 0 0 247 0 302 0 34 30 30 30 30l91 0 0-11c-24-13-41-36-45-65l180 0c-4 27-21 52-45 65l0 9c0 0 57 0 91 0 33 0 30-31 30-31l0-299c0 0 4-30-30-30z m-256 196l30 0 0 30-30 0z m30-75l180 0 0 15-180 0z m0-45l180 0 0 15-180 0z m141 171l-9 9-77-75-27 27-9-9 36-36z m-141-217l180 0 0 15-180 0z"/>
<glyph glyph-name="related-books" unicode="&#72;" d="M172 482l0-339 283 0 0 339z m263-321l-245 0 0 301 245 0z m-301 264l-20 0 0-339 284 0 0 19-264 0z m-57-56l-18 0 0-339 283 0 0 20-265 0z m188 75l-57 0 0-19 57 0z m0-245l-57 0 0-18 57 0z m151 245l-58 0 0-19 58 0z m0-245l-58 0 0-18 58 0z"/>
<glyph glyph-name="share" unicode="&#74;" d="M316 420l0-15 80 0-172-172 11-10 172 172 0-79 15 0 0 106-106 0z m45-315l-256 0 0 256 196 0 0 15-211 0 0-286 286 0 0 226-15 0z"/>
<glyph glyph-name="delete" unicode="&#105;" d="M316 407l0 15c0 16-13 30-30 30l-75 0c-17 0-30-14-30-30l0-15-76 0 0-15 15 0 16-287c0-16 13-30 30-30l165 0c17 0 30 14 30 30l15 287 16 0 0 15z m-120 15c0 9 6 15 15 15l75 0c9 0 15-6 15-15l0-15-105 0z m150-315c0-9-7-17-15-17l-165 0c-9 0-15 6-15 15l-15 287 225 0z m-90 254l-15 0 0-241 15 0z m-45-241l-15 241-15-1 15-241z m105 241l-15 0-15-241 15-1z"/>
<glyph glyph-name="edit" unicode="&#106;" d="M416 431c-5 3-11 6-17 6-6 0-12-2-17-6l-66-68 0 13-241 0 0-286 286 0 0 241-13 0 68 67c7 9 7 24 0 33z m-70-326l-256 0 0 256 223 0-117-117 0-33 31 0 119 119z m58 303l-183-182-10 0 0 10 182 183c3 3 5 3 6 3 2 0 3 0 6-2 2-3 2-4 2-6 0-1 0-3-3-6z"/>
<glyph glyph-name="drag" unicode="&#110;" d="M60 256l377 0 0 15-377 0z m0-45l377 0 0 15-377 0z m0 105l0-15 377 0 0 15z"/>
<glyph glyph-name="grid-view" unicode="&#111;" d="M105 286l121 0 0 121-121 0z m15 106l91 0 0-91-91 0z m166 15l0-121 121 0 0 121z m106-106l-91 0 0 91 91 0z m-287-196l121 0 0 121-121 0z m15 106l91 0 0-91-91 0z m166-106l121 0 0 121-121 0z m15 106l91 0 0-91-91 0z"/>
<glyph glyph-name="gallery-view" unicode="&#112;" d="M226 437l0-76 75 0 0 76z m60-61l-45 0 0 46 45 0z m-60-150l75 0 0 75-75 0z m15 60l45 0 0-45-45 0z m-15-196l75 0 0 76-75 0z m15 61l45 0 0-46-45 0z"/>
<glyph glyph-name="list-view" unicode="&#115;" d="M60 301l121 0 0 106-121 0z m15 91l91 0 0-76-91 0z m136-91l226 0 0 15-226 0z m0 106l0-15 226 0 0 15z m0-61l226 0 0 15-226 0z m-151-226l121 0 0 106-121 0z m15 91l91 0 0-75-91 0z m136-91l226 0 0 16-226 0z m0 91l226 0 0 15-226 0z m0-45l226 0 0 15-226 0z"/>
<glyph glyph-name="down-open-big" unicode="&#120;" d="M67 369c0 0 189-183 189-183 0 0 190 183 190 183 8 9 16 9 25 0 9-8 9-16 0-25 0 0-203-201-203-201-7-7-15-7-24 0 0 0-203 201-203 201-9 9-9 17 0 25 8 8 17 8 26 0"/>
<glyph glyph-name="down-open-small" unicode="&#121;" d="M396 293c0 0-120-115-120-115-6-6-12-9-20-9-8 0-14 3-20 9 0 0-120 115-120 115-6 5-8 12-8 21 0 8 2 15 8 21 13 13 26 13 40 0 0 0 100-96 100-96 0 0 100 96 100 96 14 13 27 13 40 0 6-6 8-13 8-21 0-9-2-16-8-21"/>
<glyph glyph-name="down-open-mini" unicode="&#122;" d="M344 317c8 9 16 9 25 0 9-7 9-15 0-24 0 0-101-98-101-98-7-8-15-8-24 0 0 0-101 98-101 98-9 9-9 17 0 24 9 9 17 9 26 0 0 0 87-79 87-79 0 0 88 79 88 79"/>
<glyph glyph-name="add-ppt" unicode="&#101;" d="M196 316l-91 0 0-90 91 0z m-15-75l-61 0 0 60 61 0z m45 0l105 0 0 15-105 0z m-121-60l226 0 0 15-226 0z m0-45l226 0 0 15-226 0z m279 346c-60 0-108-47-113-106l-256 0 0-15 30 0 0-271 166 0 0-45-121 0 0-15 256 0 0 15-120 0 0 45 166 0 0 166c58 5 105 53 105 113 0 62-51 113-113 113z m-8-377l-316 0 0 256 211 0c2-16 6-31 12-45l-57 0 0-15 68 0c4-6 9-10 13-15l-81 0 0-15 102 0c15-9 32-13 48-15z m8 166c-53 0-96 44-96 96 0 53 43 97 96 97 53 0 96-44 96-97 0-52-43-96-96-96z m8 166l-16 0 0-61-60 0 0-15 60 0 0-60 16 0 0 60 60 0 0 15-60 0z"/>
<glyph glyph-name="stop" unicode="&#73;" d="M331 376l-150 0c-26 0-45-19-45-45l0-150c0-26 19-45 45-45l150 0c26 0 45 19 45 45l0 150c0 26-19 45-45 45z m30-185c0-22-18-40-40-40l-128 0c-23 0-41 18-41 40l0 128c0 23 18 41 41 41l128 0c22 0 40-18 40-41z"/>
<glyph glyph-name="back-to-bookshelf" unicode="&#75;" d="M51 256l54 54c3 3 3 9 0 12-3 3-9 3-12 0l-60-60c-3-3-3-9 0-12l60-60c3-3 9-3 12 0 3 3 3 9 0 12z m292 87c-16 0-30-13-30-30l0-173c0-17 14-30 30-30 17 0 30 13 30 30l0 173c0 17-13 30-30 30z m18-200c0-9-7-18-18-18-9 0-18 8-18 18l0 167c0 9 8 18 18 18 9 0 18-7 18-18z m-90 261c-17 0-30-14-30-31l0-233c0-17 13-30 30-30 17 0 30 13 30 30l0 233c0 17-13 31-30 31z m18-264c0-9-7-17-18-17-9 0-18 8-18 17l0 230c0 9 8 19 18 19 9 0 18-8 18-19z m-90 215c-17 0-30-13-30-30l0-185c0-17 13-30 30-30 16 0 30 13 30 30l0 185c0 17-14 30-30 30z m18-209c0-10-8-18-18-18-11 0-18 8-18 18l0 176c0 11 7 18 18 18 10 0 18-7 18-18z m263 5l-34 131c-5 16-21 25-38 21-16-5-26-21-21-38l35-131c4-17 21-26 37-21 17 4 26 21 21 38z m-25-23c-9-3-20 3-21 12l-33 127c-3 9 3 19 12 21 9 3 19-3 21-12l33-125c3-11-3-20-12-23z"/>
<glyph glyph-name="bookmark" unicode="&#76;" d="M310 68c-12 0-16 13-30 27-9 10-12 13-24 24-14-14-15-18-20-24-13-14-16-27-34-27-20 0-35 16-35 34l0 309c0 18 15 33 32 33l114 0c18 0 32-15 32-33l0-307c0-20-15-36-35-36z m-54 75c26-26 38-42 48-53 5-4 6-7 14-7 7 0 13 6 13 13l0 321c0 6-4 12-10 12l-131 0c-6 0-11-4-11-12l0-322c0-8 6-14 14-14 7 0 7 3 13 8 18 19 29 33 50 54z"/>
<glyph glyph-name="column-1" unicode="&#77;" d="M325 280l-140 0 0-9 140 0z m-186 93l0-233 233 0 0 233z m225-225l-216 0 0 216 218 0 0-216z m-39 170l-140 0 0-8 140 0z m0-77l-140 0 0-8 140 0z m0-39l-140 0 0-8 140 0z"/>
<glyph glyph-name="column-2" unicode="&#78;" d="M209 318l-140 0 0-8 140 0z m234 0l-140 0 0-8 140 0z m-234-77l-140 0 0-8 140 0z m0 39l-140 0 0-9 140 0z m234-78l-140 0 0-8 140 0z m0 39l-140 0 0-8 140 0z m0 39l-140 0 0-9 140 0z m-420 93l0-233 466 0 0 233z m225-225l-218 0 0 216 218 0z m234 0l-218 0 0 216 218 0z m-273 54l-140 0 0-8 140 0z"/>
<glyph glyph-name="fonts" unicode="&#79;" d="M78 137l86 244 20 0 87-244-18 0-27 77-104 0-27-78-17 0z m48 90l95 0-48 139z m293-90l0 30c-6-6-12-10-17-15-4-4-10-7-16-12-7-4-11-6-17-7-6-2-12-3-18-3-9 0-17 1-23 4-6 3-10 6-15 11-4 4-6 10-9 18-3 7-3 15-3 24 0 7 2 15 3 22 2 8 6 14 11 18 4 5 13 9 24 14 10 4 24 6 40 7l38 3 0 10c0 9-1 16-3 22-1 6-4 12-7 15-3 3-9 8-15 9-6 2-14 3-25 3-7 0-13 0-19-1-6-2-11-3-14-6-3-3-7-5-9-8-1-3-4-6-7-9l-11 8c3 4 6 9 9 12 3 3 8 7 12 9 5 1 11 4 17 6 6 1 13 1 22 1 12 0 23-1 31-4 7-3 15-6 19-12 5-6 9-12 11-20 1-7 3-18 3-28l0-127c3 6-12 6-12 6z m0 104l-38-3c-14-2-24-3-32-6-7-3-15-6-19-9-5-3-8-9-9-14-2-4-3-12-3-19 0-15 3-27 7-35 5-7 14-10 26-10 4 0 7 0 12 1 4 2 9 3 13 6 5 3 11 6 17 12 6 6 15 12 24 20z"/>
<glyph glyph-name="margins-1" unicode="&#80;" d="M358 304l-204 0 0-12 204 0z m0 48l-204 0 0-12 204 0z m0 49l-204 0 0-12 204 0z m0-145l-204 0 0-12 204 0z m-313 241l0-482 422 0 0 482z m410-470l-398 0 0 458 398 0z m-97 133l-204 0 0-12 204 0z m0 48l-204 0 0-12 204 0z m0-97l-204 0 0-12 204 0z"/>
<glyph glyph-name="navigation-solid" unicode="&#82;" d="M407 482l-302 0c-42 0-75-33-75-75l0-302c0-42 33-75 75-75l302 0c42 0 75 33 75 75l0 302c0 42-33 75-75 75z m-64-273l0 32-72 0 0-72 33 0-46-76-47 76 30 0 0 72-72 0 0-33-76 46 76 47 0-30 72 0 0 72-33 0 46 76 47-76-30 0 0-72 72 0 0 33 76-46z"/>
<glyph glyph-name="themes-solid" unicode="&#83;" d="M407 482l-302 0c-42 0-75-33-75-75l0-302c0-42 33-75 75-75l302 0c42 0 75 33 75 75l0 302c0 42-33 75-75 75z m-61-324c0-28-22-51-51-51l-153 0c-29 0-52 23-52 51l0 90c0 29 23 52 52 52l153 0c29 0 51-23 51-52z m46 50c0-20-13-38-29-45l0 104c0 28-23 51-51 51l-67 0-45 28 140 0c29 0 52-22 52-51z m43 42c0-20-12-38-28-45l0 107c0 28-23 51-52 51l-66 0-45 29 140 0c29 0 51-23 51-52z"/>
<glyph glyph-name="margins-2" unicode="&#84;" d="M401 256l-290 0 0-12 291 0 0 12z m0 48l-290 0 0-12 291 0 0 12z m0 48l-290 0 0-12 291 0 0 12z m0-192l-290 0 0-12 291 0 0 12z m-356 337l0-482 422 0 0 482z m410-470l-398 0 0 458 398 0z m-54 181l-290 0 0-12 291 0 0 12z m0 193l-290 0 0-12 291 0 0 12z m0-290l-290 0 0-12 291 0 0 12z"/>
<glyph glyph-name="margins-3" unicode="&#85;" d="M428 352l-344 0 0-12 344 0z m0-96l-344 0 0-12 344 0z m0 48l-344 0 0-12 344 0z m0 97l-344 0 0-12 344 0z m-383 96l0-482 422 0 0 482z m410-470l-398 0 0 458 398 0z m-27 181l-344 0 0-12 344 0z m0-48l-344 0 0-12 344 0z m0-49l-344 0 0-12 344 0z"/>
<glyph glyph-name="navigation-flip" unicode="&#86;" d="M182 273l148 0 0 9-148 0z m0-41l148 0 0 9-148 0z m238 66l0-78 69 38z m-328-78l0 78-69-42z m90 93l148 0 0 9-148 0z m-49-180l246 0 0 246-246 0z m7 239l230 0 0-230-230 0z m42-182l148 0 0 9-148 0z"/>
<glyph glyph-name="navigation-scroll" unicode="&#87;" d="M455 193l0 138 34 0-48 88-55-88 36 0 0-138-36-2 54-90 48 90z m-368 31l195 0 0 11-195 0z m0 53l195 0 0 11-195 0z m0 54l195 0 0 11-195 0z m-64-238l323 0 0 324-323 0z m10 314l303 0 0-302-303 0z m54-237l195 0 0 11-195 0z"/>
<glyph glyph-name="toc" unicode="&#88;" d="M197 328l243 0c22 0 39 18 39 39 0 22-17 40-38 40l-244 0c-22 0-39-18-39-40 0-21 18-39 39-39z m5 62l235 0c13 0 22-11 22-23 0-12-10-22-22-22l-235 0c-14 0-23 10-23 22 0 12 11 23 23 23z m241-95l-244 0c-23 0-39-18-39-39 0-23 18-39 39-39l244 0c22 0 39 18 39 39 0 21-18 39-39 39z m-2-62l-241 0c-12 0-22 11-22 23 0 12 10 23 22 23l241 0c12 0 23-11 23-23 1-14-9-23-23-23z m0-49l-244 0c-22 0-39-18-39-39 0-23 18-40 39-40l243 0c22 0 39 18 39 40 1 21-17 39-38 39z m-7-64l-232 0c-14 0-24 11-24 25 0 13 10 24 24 24l230 0c14 0 24-11 24-24 0-14-10-25-22-25z m-365 208l17 0c22 0 39 18 39 39 0 22-17 40-39 40l-17 0c-21 0-39-17-39-40 0-22 18-39 39-39z m0 62l18 0c12 0 23-11 23-23 0-12-11-22-23-22l-18 0c-12 0-22 10-22 22 0 12 10 23 22 23z m0-175l15 0c23 0 39 18 39 39 0 23-18 40-39 40l-15 0c-21 1-39-17-39-38 0-23 18-41 39-41z m2 65l15 0c13 0 24-10 24-24 0-14-11-24-24-24l-15 0c-14 0-24 10-24 24 0 12 10 24 24 24z m16-96l-18 0c-21 0-39-18-39-39 0-23 18-40 39-40l18 0c23 0 39 18 39 40 0 21-16 39-39 39z m-1-64l-15 0c-14 0-24 11-24 25 0 13 10 24 24 24l16 0c14 0 24-11 24-24-1-14-12-25-25-25z"/>
<glyph glyph-name="tab-left" unicode="&#89;" d="M462 348l-412 0c-20 0-35-15-35-35l0-114c0-20 15-35 35-35l447 0 0 184z"/>
<glyph glyph-name="tab-right" unicode="&#90;" d="M462 348l-447 0 0-184 447 0c20 0 35 15 35 35l0 114c0 20-15 35-35 35z"/>
<glyph glyph-name="themes-black" unicode="&#48;" d="M276 250c-6 3-15 4-25 4-4 0-7 0-10 0-3 0-6 0-8 0l0-58c8-2 15-3 25-3 12 0 22 3 28 9 6 6 9 12 9 21 0 6-1 10-4 15-3 6-8 9-15 12z m153 239l-346 0c-33 0-60-27-60-60l0-348c0-33 27-60 60-60l348 0c33 0 60 27 60 60l0 350c-2 33-29 58-62 58z m-117-284c-5-6-11-11-18-14-8-3-20-4-35-4l-66 0 0 4 4 0c6 0 11 2 12 6 2 3 3 8 3 15l0 91c0 9-1 13-3 16-3 3-6 5-12 5l-4 0 0 4 60 0c11 0 20-1 27-3 11-3 18-7 24-13 6-6 8-14 8-21 0-8-2-14-6-18-5-6-11-9-18-12 9-2 16-7 21-11 6-6 10-14 10-23 0-10-3-16-7-22z m-59 57c11 0 18 2 23 3 4 2 9 6 12 11 3 4 4 9 4 15 0 7-3 15-10 21-6 6-17 9-29 9-8 0-14-2-18-2l0-54c3 0 6-1 9-1 1-2 4-2 9-2z"/>
<glyph glyph-name="themes-sepia" unicode="&#49;" d="M429 489l-346 0c-33 0-60-27-60-60l0-348c0-33 27-60 60-60l348 0c33 0 60 27 60 60l0 348c-2 33-29 60-62 60z m-141-295c-8-7-18-12-32-12-5 0-8 0-12 2-2 0-6 1-14 3-6 1-10 3-12 3-1 0-3 0-4-2-2-1-2-3-2-6l-4 0 0 48 4 0c2-10 5-18 8-22 3-5 7-9 13-12 6-3 14-5 21-5 10 0 16 2 20 6 5 5 8 11 8 17 0 3-2 7-3 10-2 3-5 6-9 9-3 2-11 6-22 14-12 6-21 12-25 17-5 4-9 9-12 13-3 5-5 11-5 15 0 11 5 18 12 26 8 7 18 10 29 10 7 0 15-1 24-6 5-1 6-3 8-3 1 0 3 0 4 2 2 1 2 3 3 6l5 0 0-48-5 0c-1 9-3 16-6 22-3 6-7 11-13 14-6 3-13 4-19 4-7 0-13-1-18-6-4-4-7-9-7-15 0-4 1-7 4-12 5-4 15-12 31-21 13-7 22-12 27-17 4-3 9-7 10-13 3-5 5-11 5-17 0-7-5-16-12-24z"/>
<glyph glyph-name="themes-white" unicode="&#50;" d="M429 489l-346 0c-33 0-60-27-60-60l0-348c0-33 27-60 60-60l348 0c33 0 60 27 60 60l0 348c-2 33-29 60-62 60z m-78-168c-3 0-6 0-9-2-2-1-5-3-6-7-2-3-3-8-6-17l-39-111-5 0-32 87-31-89-3 0-41 116c-3 9-4 14-6 15-1 3-3 5-6 6-3 2-6 2-9 2l0 4 51 0 0-4-3 0c-3 0-6-2-9-3-1-2-1-3-1-6 0-3 1-8 4-17l27-78 23 66-5 12-3 9c-1 3-3 6-4 9-2 2-2 3-3 3-2 2-3 2-5 3-1 0-3 0-6 0l0 5 55 0 0-5-3 0c-5 0-6-1-9-3-2-1-3-4-3-6 0-3 1-9 4-18l27-75 27 77c3 9 5 15 5 18 0 1 0 3-2 4-1 2-1 3-3 3-3 2-6 2-10 2l0 4 42 0 0-4z"/>
<glyph glyph-name="search" unicode="&#51;" d="M477 95l-137 135c14 24 21 52 21 82 0 89-72 162-162 162-91 0-161-72-161-162 0-89 72-163 162-163 30 0 58 8 82 21l137-135c7-8 19-12 30-12 10 0 21 4 30 12 15 16 15 43-2 60z m-277 75c-78 0-141 63-141 142 0 78 63 141 141 141 79 0 142-63 142-141 0-79-63-142-142-142z m258-114c-3-3-8-5-11-5-1 0-6 0-10 5l-133 132c8 6 14 12 20 20l132-133c3-3 5-7 5-10 0-2 0-6-3-9z m-312 333c-6 6-15 6-20 0-42-43-42-110 0-153 4-3 7-4 11-4 3 0 8 1 11 4 6 6 6 15 0 20-32 32-32 81 0 113 4 4 4 13-2 20z"/>
<glyph glyph-name="icon-audio-solid" unicode="&#52;" d="M407 482l-302 0c-42 0-75-33-75-75l0-302c0-42 33-75 75-75l302 0c42 0 75 33 75 75l0 302c0 42-33 75-75 75z m-61-331c-9-8-21-12-31-12-8 0-14 1-18 6-5 3-8 9-8 15 0 10 8 19 17 27 9 7 21 12 30 12 9 0 6-2 10-6l0 165-135-27 0-180c0-11-15-21-24-29-9-8-21-12-32-12-7 0-13 1-18 6-4 3-7 9-7 15 0 11 7 20 16 27 9 8 21 12 30 12 9 0 15-1 20-6l0 190 1 0 164 30 0-205c0-12-6-21-15-28z"/>
<glyph glyph-name="column-solid" unicode="&#53;" d="M407 482l-302 0c-42 0-75-33-75-75l0-302c0-42 33-75 75-75l302 0c42 0 75 33 75 75l0 302c0 42-33 75-75 75z m-31-362l-240 0 0 272 240 0z m-15 256l-210 0 0-240 210 0z m-30-195l-150 0 0 15 150 0z m0 45l-150 0 0 15 150 0z m0 45l-150 0 0 15 150 0z m0 45l-150 0 0 15 150 0z"/>
<glyph glyph-name="font-solid" unicode="&#54;" d="M407 482l-302 0c-42 0-75-33-75-75l0-302c0-42 33-75 75-75l302 0c42 0 75 33 75 75l0 302c0 42-33 75-75 75z m-122-316c-3 0-5 0-8 0-3 0-4 0-7 0-3 0-5 0-8 0-3 0-4 0-6 0-2 0-5 0-8 0-3 0-6 0-9 0-3 0-6 0-10 0-3 0-6 0-9 0l0 7 7 0c2 0 5 0 5 2 1 0 3 1 3 1 0 0 1 2 1 2 0 1 0 1 0 3 0 1 0 3-1 6-2 3-2 6-3 10-2 5-3 8-5 14-1 4-4 9-6 15-3 0-6 0-10 0-5 0-9 0-14 0-4 0-9 0-15 0-4 0-9 0-13 0-5 0-9 0-12 0-3 0-6 0-8 0-3-6-4-11-6-15-1-5-3-9-4-12-2-3-3-8-3-9 1-6 0-8 0-9 0-3 1-6 3-6 1-2 4-2 9-2l4 0 0-7c-1 0-4 0-7 0-3 0-6 0-8 0-3 0-6 0-7 0-4 0-5 0-8 0-2 0-3 0-5 0-1 0-4 0-6 0-3 0-4 0-6 0-1 0-3 0-4 0l0 7 6 0c3 0 4 2 6 3 1 2 3 3 4 6 2 2 3 6 6 11 2 4 5 10 10 18 3 7 7 18 13 30 6 12 12 26 20 44 1 3 3 7 6 12 1 4 4 9 6 13 1 3 1 5 3 8 1 3 1 4 3 7l-3 3 1 2 23 6c3-8 6-15 7-21 2-6 5-11 6-14 2-4 3-7 5-12 1-3 3-7 4-13 2-5 5-11 8-18 3-8 6-16 10-26 2-3 3-8 5-12 1-5 3-9 6-14 2-4 5-9 6-13 2-5 5-8 6-11 2-3 5-6 6-7 2-2 3-3 5-3l7 0 0-6z m120 4c-1-1-3-1-6-3-3-1-4-1-7-3-3 0-6-1-10-1-3 0-6 0-9 1-3 2-4 2-6 3-1 2-3 3-3 5-1 1-1 3-1 6-3-2-5-5-8-6-3-2-6-5-9-6-3-2-6-3-10-5-3-1-8-1-12-1-9 0-17 3-21 7-5 5-8 12-8 20 0 4 2 9 3 12 2 3 5 6 8 9 3 3 6 4 10 6 5 1 8 3 12 4 3 2 6 2 9 2 3 0 6 1 9 1 3 0 6 2 8 2 3 0 4 1 6 1l0 9c0 3 0 6-2 9 0 3-1 6-3 8-1 1-4 3-7 4-3 2-8 2-12 2-5 0-8 0-14-2-4-1-9-3-13-4l-2 1-1 8c3 2 6 3 10 5 5 1 8 3 11 3 3 1 7 1 10 3 3 0 6 1 9 1 3 0 8 0 11-1 4 0 7-3 12-5 3-3 6-6 9-11 3-4 3-10 3-19l0-39c0-3 0-8 1-9 0-3 2-5 4-6 1-2 3-3 4-5 2-1 3-1 5-1 3 0 6 1 10 3l3-6c0 0-1-2-3-2z m-200 103c-3 6-6 13-8 19-3 6-4 12-7 18-6-12-11-24-17-37-6-14-10-26-16-38 4 0 10 0 15 0 6 0 12 0 16 0 6 0 11 0 17 0l13 0c-1 6-4 12-7 18-2 6-3 12-6 20z m155-67c0 3 0 6 0 9 0 3 0 5 0 6-3-1-6-3-11-3-4-1-7-1-10-3-3-1-6-3-9-4-3-2-5-3-6-5-2-1-3-3-3-6 0-1-2-4-2-7 0-6 2-11 5-14 3-3 6-4 10-4 2 0 5 0 8 1 3 0 4 2 7 3 3 2 5 3 8 5 3 1 4 3 6 4 0 2 0 5 0 8-3 3-3 6-3 10z"/>
<glyph glyph-name="font-face-solid" unicode="&#55;" d="M407 482l-302 0c-42 0-75-33-75-75l0-302c0-42 33-75 75-75l302 0c42 0 75 33 75 75l0 302c0 42-33 75-75 75z m-160-176c-3 9-5 15-8 18-3 4-7 6-10 9-5 1-12 3-21 3l-39 0 0-71 33 0c7 0 13 2 16 5 3 3 6 10 8 19l4 0 0-60-4 0c0 7-2 12-3 15-2 3-5 6-8 7-3 2-7 3-13 3l-33 0 0-55c0-9 0-15 1-18 2-2 3-5 6-6 5-2 8-3 12-3l6 0 0-6-78 0 0 4 6 0c8 0 12 2 17 6 1 3 3 9 3 21l0 116c0 9 0 15-2 18-1 2-3 5-6 6-4 2-8 3-12 3l-6 0 0 5 134 0 1-39z m135 22l-75 0 0-60 69 0 0-20-69 0 0-82-24 0 0 183 98 0 0-21z"/>
<glyph glyph-name="margins-solid" unicode="&#56;" d="M407 482l-302 0c-42 0-75-33-75-75l0-302c0-42 33-75 75-75l302 0c42 0 75 33 75 75l0 302c0 42-33 75-75 75z m0-362l-302 0 0 16 302 0z m0 61l-302 0 0 15 302 0z m0 60l-302 0 0 15 302 0z m0 60l-302 0 0 15 302 0z m0 60l-302 0 0 15 302 0z"/>
<glyph glyph-name="audio-line" unicode="&#37;" d="M407 482l-302 0c-42 0-75-35-75-78l0-297c0-42 33-77 75-77l302 0c42 0 75 35 75 78l0 296c0 43-33 78-75 78z m60-363c0-41-32-72-71-72l-280 0c-39-2-71 31-71 72l0 274c0 41 32 74 71 74l282 0c37 0 69-33 69-74z m-270 250l-1-188c-5 4-11 6-20 6-9 0-21-5-30-12-9-8-16-18-16-27 0-6 3-12 7-15 5-3 11-7 18-7 11 0 23 5 32 13 9 6 24 15 24 27l0 182 135 27 0-166c-4 5-3 6-10 6-9 0-21-4-30-12-9-7-17-18-17-27 0-6 3-12 8-15 4-3 10-6 18-6 10 0 22 5 31 12 9 8 15 18 15 29l0 205z"/>
<glyph glyph-name="column-line" unicode="&#38;" d="M407 482l-302 0c-42 0-75-33-75-75l0-302c0-42 33-75 75-75l302 0c42 0 75 33 75 75l0 302c0 42-33 75-75 75z m60-366c0-39-32-71-71-71l-280 0c-39 0-71 32-71 71l0 280c0 39 32 71 71 71l282 0c37 0 69-32 69-71z m-286 170l150 0 0-15-150 0z m0-90l150 0 0-15-150 0z m0 45l150 0 0-15-150 0z m0 90l150 0 0-15-150 0z m-45-211l240 0 0 272-240 0z m15 256l210 0 0-240-210 0z"/>
<glyph glyph-name="font-line" unicode="&#39;" d="M407 482l-302 0c-42 0-75-33-75-75l0-302c0-42 33-75 75-75l302 0c42 0 75 33 75 75l0 302c0 42-33 75-75 75z m60-366c0-39-32-71-71-71l-280 0c-39 0-71 32-71 71l0 280c0 39 32 71 71 71l280 0c39 0 71-32 71-71z m-193 59c-1 1-4 4-6 7-1 3-4 6-6 11-1 4-4 9-6 13-3 5-5 9-6 14-2 4-3 9-5 12-4 10-7 18-10 26-3 7-6 13-8 18-1 6-3 10-4 13-2 5-3 8-5 12-1 3-4 8-6 14-1 6-4 13-7 21l-23-6-1-2 3-3c-2-3-2-4-3-7-2-3-2-5-3-8-2-4-5-9-6-13-3-5-5-9-6-12-8-18-14-32-20-44-6-12-10-23-13-30-5-8-8-14-10-18-3-5-4-9-6-11-1-3-3-4-4-6-2-1-3-3-6-3l-6 0 0-7c1 0 3 0 4 0 2 0 3 0 6 0 2 0 5 0 6 0 2 0 3 0 5 0 3 0 4 0 8 0 1 0 4 0 7 0 2 0 5 0 8 0 3 0 6 0 7 0l0 7-4 0c-5 0-8 0-9 2-2 0-3 3-3 6 0 1 1 3 0 9 0 1 1 6 3 9 1 3 3 7 4 12 2 4 3 9 6 15 2 0 5 0 8 0 3 0 7 0 12 0 4 0 9 0 13 0 6 0 11 0 15 0 5 0 9 0 14 0 4 0 7 0 10 0 2-6 5-11 6-15 2-6 3-9 5-14 1-4 1-7 3-10 1-3 1-5 1-6 0-2 0-2 0-3l-1-2c0 0-2-1-3-1 0-2-3-2-5-2l-7 0 0-7c3 0 6 0 9 0 4 0 7 0 10 0 3 0 6 0 9 0 3 0 6 0 8 0 2 0 3 0 6 0 3 0 5 0 8 0 3 0 4 0 7 0 3 0 5 0 8 0l1 0 0 6-7 0c-2 0-3 1-5 3z m-69 60c-6 0-11 0-17 0-4 0-10 0-16 0-5 0-11 0-15 0 6 12 10 24 16 38 6 13 11 25 17 37 3-6 4-12 7-18 2-6 5-13 8-19 3-8 4-14 6-20 3-6 6-12 7-18z m190-60c-2 0-3 0-5 1-1 2-3 3-4 5-2 1-4 3-4 6-1 1-1 6-1 9l0 39c0 9 0 15-3 19-3 5-6 8-9 11-5 2-8 5-12 5-3 1-8 1-11 1-3 0-6-1-9-1-3-2-7-2-10-3-3 0-6-2-11-3-4-2-7-3-10-5l1-8 2-1c4 1 9 3 13 4 6 2 9 2 14 2 4 0 9 0 12-2 3-1 6-3 7-4 2-2 3-5 3-8 2-3 2-6 2-9l0-9c-2 0-3-1-6-1-2 0-5-2-8-2-3 0-6-1-9-1-3 0-6 0-9-2-4-1-7-3-12-4-4-2-7-3-10-6-3-3-6-6-8-9-1-3-3-8-3-12 0-8 3-15 8-20 4-4 12-7 21-7 4 0 9 0 12 1 4 2 7 3 10 5 3 1 6 4 9 6 3 1 5 4 8 6 0-3 0-5 1-6 0-2 2-3 3-5 2-1 3-1 6-3 3-1 6-1 9-1 4 0 7 1 10 1 3 2 4 2 7 3 3 2 5 2 6 3 2 0 3 2 3 2l-3 6c-4-2-7-3-10-3z m-32 13c-2-1-3-3-6-4-3-2-5-3-8-5-3-1-4-3-7-3-3-1-6-1-8-1-4 0-7 1-10 4-3 3-5 8-5 14 0 3 2 6 2 7 0 3 1 5 3 6 1 2 3 3 6 5 3 1 6 3 9 4 3 2 6 2 10 3 5 0 8 2 11 3 0-1 0-3 0-6 0-3 0-6 0-9 0-4 0-7 3-10 0-3 0-6 0-8z"/>
<glyph glyph-name="font-face-line" unicode="&#40;" d="M407 482l-302 0c-42 0-75-33-75-75l0-302c0-42 33-75 75-75l302 0c42 0 75 33 75 75l0 302c0 42-33 75-75 75z m60-366c0-39-32-71-71-71l-280 0c-39 0-71 32-71 71l0 280c0 39 32 71 71 71l282 0c37 0 69-32 69-71z m-86 212l0 21-98 0 0-183 24 0 0 82 69 0 0 20-69 0 0 60z m-265 17l0-5 6 0c4 0 8-1 12-3 3-1 5-4 6-6 2-3 2-9 2-18l0-116c0-12-2-18-3-21-5-4-9-6-17-6l-6 0 0-4 78 0 0 6-6 0c-4 0-7 1-12 3-3 1-4 4-6 6-1 3-1 9-1 18l0 55 33 0c6 0 10-1 13-3 3-1 6-4 8-7 1-3 3-8 3-15l4 0 0 60-4 0c-2-9-5-16-8-19-3-3-9-5-16-5l-33 0 0 71 39 0c9 0 16-2 21-3 3-3 7-5 10-9 3-3 5-9 8-18l4 0-1 39z"/>
<glyph glyph-name="margins-line" unicode="&#41;" d="M407 482l-302 0c-42 0-75-33-75-75l0-302c0-42 33-75 75-75l302 0c42 0 75 33 75 75l0 302c0 42-33 75-75 75z m0-362l-302 0 0 16 302 0z m0 61l-302 0 0 15 302 0z m0 60l-302 0 0 15 302 0z m0 60l-302 0 0 15 302 0z m0 60l-302 0 0 15 302 0z m60-245c0-39-32-71-71-71l-280 0c-39 0-71 32-71 71l0 280c0 39 32 71 71 71l282 0c37 0 69-32 69-71z"/>
<glyph glyph-name="navigation-line" unicode="&#42;" d="M407 482l-302 0c-42 0-75-33-75-75l0-302c0-42 33-75 75-75l302 0c42 0 75 33 75 75l0 302c0 42-33 75-75 75z m60-366c0-39-32-71-71-71l-280 0c-39 0-71 32-71 71l0 280c0 39 32 71 71 71l282 0c37 0 69-32 69-71z m-124 155l-72 0 0 72 30 0-47 76-46-76 33 0 0-72-72 0 0 30-76-47 76-46 0 33 72 0 0-72-30 0 47-76 46 76-33 0 0 72 72 0 0-32 76 49-76 46z"/>
<glyph glyph-name="themes-line" unicode="&#43;" d="M407 482l-302 0c-42 0-75-33-75-75l0-302c0-42 33-75 75-75l302 0c42 0 75 33 75 75l0 302c0 42-33 75-75 75z m60-366c0-39-32-71-71-71l-280 0c-39 0-71 32-71 71l0 280c0 39 32 71 71 71l282 0c37 0 69-32 69-71z m-127 230l-140 0 45-28 67 0c28 0 51-23 51-51l0-104c16 7 29 25 29 45l0 87c0 29-23 51-52 51z m-45-46l-153 0c-29 0-52-23-52-52l0-90c0-28 23-51 52-51l153 0c29 0 51 23 51 51l0 90c0 29-22 52-51 52z m89 92l-140 0 45-29 66 0c29 0 52-23 52-51l0-107c16 7 28 25 28 45l0 90c0 29-22 52-51 52z"/>
<glyph glyph-name="fullscreen" unicode="&#57;" d="M181 422l0 15-106 0 0-106 15 0 0 80 107-107 11 11-107 107z m150 15l0-15 80 0-107-107 11-11 107 107 0-80 15 0 0 106z m-134-229l-107-107 0 80-15 0 0-106 106 0 0 15-80 0 107 107z m225-107l-107 107-11-11 107-107-80 0 0-15 106 0 0 106-15 0z"/>
<glyph glyph-name="nav-next-chapter" unicode="&#33;" d="M298 273l-172 171c-9 9-25 9-34 0-9-9-9-25 0-34l155-154-154-155c-9-9-9-26 0-35 9-9 26-9 35 0l172 172c9 10 9 26-2 35z m121 0l-172 171c-9 9-26 9-35 0-9-9-9-25 0-34l155-154-153-155c-9-9-9-26 0-35 9-9 25-9 34 0l172 172c9 10 9 26-1 35z"/>
<glyph glyph-name="nav-previous-chapter" unicode="&#34;" d="M214 239l172-171c9-9 25-9 34 0 9 9 9 25 0 34l-155 154 154 155c9 9 9 26 0 35-9 9-26 9-35 0l-170-173c-11-9-11-25 0-34z m-121 0l172-171c9-9 26-9 35 0 9 9 9 25 0 34l-155 154 153 155c9 9 9 26 0 35-9 9-25 9-34 0l-171-173c-10-9-10-25 0-34z"/>
<glyph glyph-name="double-page-01" unicode="&#35;" d="M68 196l135 0 0 15-135 0z m135 180l-60 0 0-15 60 0z m-135-120l135 0 0 15-135 0z m0-120l135 0 0 15-135 0z m241 180l135 0 0 15-135 0z m0-60l135 0 0 15-135 0z m113 181c-64 0-130 0-158 0-10 0-16 0-16 0-28 0-94 0-158 0-24-24-58-59-82-82 0-102 0-280 0-280l496 0c0 0 0 176 0 280-24 23-58 58-82 82z m-339-30l0-46-45 0z m165-317l-225 0c0 0 0 161 0 258 25 0 75 0 75 0 0 0 0 50 0 75 72 0 147 0 150 0z m181 317l45-46-45 0z m60-317l-225 0 0 332c3 0 78 0 150 0 0-24 0-76 0-76 0 0 50 0 75 0 0-95 0-256 0-256z m-180 106l135 0 0 15-135 0z m0-60l135 0 0 15-135 0z m60 240l-60 0 0-15 60 0z m-301-60l135 0 0 15-135 0z"/>
<glyph glyph-name="print" unicode="&#36;" d="M136 309c-10 0-16-6-16-15 0-9 6-15 16-15 9 0 15 6 15 15 0 9-6 15-15 15z m45 0c-9 0-15-6-15-15 0-9 6-15 15-15 9 0 15 6 15 15 0 9-6 15-15 15z m263 60l-83 0 0 75-210 0 0-75-83 0c-5 0-8-3-8-8l0-225c0-5 3-8 8-8l83 0 0-60 210 0 0 60 83 0c5 0 8 3 8 8l0 225c0 5-3 8-8 8z m-278 60l180 0 0-60-180 0z m180-346l-180 0 0 135 180 0z m91 60l-76 0 0 90-210 0 0-90-76 0 0 211 362 0z"/>
<glyph glyph-name="rotate-left" unicode="&#44;" d="M316 437c-84 0-203 0-203 0l0-362 286 0c0 0 0 176 0 280-24 23-59 58-83 82z m8-30l45-46-45 0z m60-317l-256 0 0 332c0 0 107 0 181 0 0-24 0-76 0-76 0 0 49 0 75 0 0-95 0-256 0-256z m-120 256l-89-46 89-47 0 39c42 0 67-33 67-75 0-42-33-75-75-75-42 0-75 33-75 75l-21 0c0-54 43-97 96-97 54 0 96 44 96 97 0 54-36 96-88 96z"/>
<glyph glyph-name="rotate-right" unicode="&#45;" d="M316 437c-84 0-203 0-203 0l0-362 286 0c0 0 0 176 0 280-24 23-59 58-83 82z m8-30l45-46-45 0z m60-317l-256 0 0 332c0 0 107 0 181 0 0-24 0-76 0-76 0 0 49 0 75 0 0-95 0-256 0-256z m-47 210l-89 46 0-31c-54 0-88-44-88-97 0-54 43-96 96-96 54 0 96 44 96 96l-21 0c0-42-33-75-75-75-42 0-75 33-75 75 0 43 25 76 67 76l0-40z"/>
<glyph glyph-name="single-page" unicode="&#47;" d="M248 376l-60 0 0-15 60 0z m-60-240l136 0 0 15-136 0z m0 120l136 0 0 15-136 0z m0-60l136 0 0 15-136 0z m113 241c-84 0-173 0-173 0l0-362 256 0c0 0 0 176 0 280-24 23-59 58-83 82z m8-30l45-46-45 0z m60-317l-226 0 0 332c0 0 77 0 151 0 0-24 0-76 0-76 0 0 49 0 75 0 0-95 0-256 0-256z m-181 226l136 0 0 15-136 0z"/>
<glyph glyph-name="double-page" unicode="&#58;" d="M68 136l135 0 0 15-135 0z m0 60l135 0 0 15-135 0z m22 241c-24-24-58-59-82-82 0-102 0-280 0-280l256 0 0 362c0 0-89 0-174 0z m-7-30l0-46-45 0z m165-317l-225 0c0 0 0 161 0 258 25 0 75 0 75 0 0 0 0 50 0 75 74 0 150 0 150 0z m-180 166l135 0 0 15-135 0z m135 120l-60 0 0-15 60 0z m-135-60l135 0 0 15-135 0z m241-180l135 0 0 15-135 0z m0 60l135 0 0 15-135 0z m60 180l-60 0 0-15 60 0z m-60-120l135 0 0 15-135 0z m113 181c-85 0-174 0-174 0l0-362 256 0c0 0 0 176 0 280-24 23-58 58-82 82z m7-30l45-46-45 0z m60-317l-225 0 0 332c0 0 76 0 150 0 0-24 0-76 0-76 0 0 50 0 75 0 0-95 0-256 0-256z m-180 226l135 0 0 15-135 0z"/>
<glyph glyph-name="settings" unicode="&#46;" d="M281 28l-48 0c-7 0-10 0-35 61l-19 8c-52-24-58-24-60-24l-4 0-3 3-34 34c-6 5-7 7 19 67l-7 18c-63 23-63 26-63 33l0 47c0 8 0 10 62 34l8 19c-28 59-26 61-21 66l37 36 5 0c5 0 26-7 61-22l19 8c23 61 26 61 33 61l48 0c7 0 10 0 34-61l20-8c51 24 58 24 60 24l4 0 3-3 34-34c5-5 7-7-20-67l8-18c63-23 63-25 63-33l0-47c0-7 0-10-62-34l-8-18c28-60 26-62 21-67l-37-36-5 0c-5 0-26 7-61 22l-19-8c-23-61-26-61-33-61z m-43 19l38 0c4 9 14 33 21 53l2 4 34 14 4-1c21-9 45-19 55-22l26 26c-3 10-13 33-23 52l-2 4 15 34 4 2c20 8 45 18 54 22l0 37c-10 4-34 13-54 21l-4 1-15 34 2 4c9 20 19 44 22 53l-27 26c-9-3-33-13-53-22l-4-2-35 14-1 4c-8 20-18 44-23 53l-38 0c-4-9-14-33-21-53l-2-4-34-14-4 1c-21 9-45 19-55 22l-26-26c3-10 13-33 23-52l2-4-15-34-4-2c-20-8-45-18-54-22l0-37c10-4 34-13 54-21l4-1 15-34-2-4c-9-20-19-44-22-53l27-26c9 3 33 13 53 22l4 2 34-14 2-4c8-20 18-44 23-53z m18 127c-44 0-80 35-80 79 0 43 36 78 80 78 44 0 80-35 80-78 0-44-36-79-80-79z m0 138c-33 0-61-27-61-59 0-33 28-60 61-60 33 0 61 27 61 60 0 32-28 59-61 59z"/>
<glyph glyph-name="correct" unicode="&#60;" d="M463 416l-294-295-121 121-12-13 133-133 307 307z"/>
<glyph glyph-name="arrows-compress" unicode="&#61;" d="M277 442l0-165 165 0 0 13-143 0 182 182-9 9-182-182 0 143z m-237-411l182 182 0-143 13 0 0 165-165 0 0-13 143 0-182-182z"/>
<glyph glyph-name="arrows-expand" unicode="&#62;" d="M482 316l0 166-166 0 0-13 143 0-182-183 9-9 183 182 0-143z m-256-81l-183-183 0 144-13 0 0-166 166 0 0 13-143 0 182 183z"/>
<glyph glyph-name="downarrow" unicode="&#63;" d="M484 467l-17 17-415-416 0 253-24 0 0-293 293 0 0 24-253 0z"/>
<glyph glyph-name="back-arrow" unicode="&#64;" d="M476 264l-409 0 124 124-11 12-144-144 144-144 11 12-124 124 409 0z"/>
<glyph glyph-name="forward-arrow" unicode="&#91;" d="M344 422l-13-13 143-144-472 0 0-18 472 0-143-144 13-13 166 166z"/>
<glyph glyph-name="pictures" unicode="&#93;" d="M466 59l-420 0c-10 0-19 8-19 19l0 363c0 11 9 19 19 19l420 0c10 0 19-8 19-19l0-363c0-11-9-19-19-19z m-419 20l418 0 0 83-417 0c0 0-1 0-1 0z m0 362l0-260c0 0 1 0 1 0l85 0c10 37 43 146 86 146 8 0 16-4 23-11 31-31 49-77 59-108 9 25 25 55 48 61 3 1 5 1 8 1 31 0 48-46 64-86l1-3 43 0 0 260z m266-260l88 0c-11 29-28 70-44 70-1 0-2-1-3-1-18-4-33-41-41-69z m-159 0l134 0c-6 25-24 86-59 121-4 4-7 5-10 5-20 0-48-63-65-126z m-18 134c-24 0-44 19-44 44 0 24 20 44 44 44 25 0 45-20 45-44 0-25-20-44-45-44z m0 78c-19 0-34-15-34-34 0-19 15-35 34-35 19 0 35 16 35 35 0 19-16 34-35 34z m241-72c-8 0-17 1-24 4-6-1-12-2-17-2-28 0-56 10-56 31 0 15 13 25 35 30 5 8 14 14 24 14l6 0c4 0 8-1 12-3 6 2 13 3 20 3 31 0 54-17 54-39 0-21-23-38-54-38z m-23 14l1-1c7-2 14-4 22-4 25 0 45 13 45 29 0 16-20 29-45 29-6 0-13-1-19-3l-2 0-2 1c-3 1-6 2-9 2l-6 0c-7 0-14-4-17-11l-1-2-2-1c-18-3-30-10-30-20 0-14 24-21 47-21 5 0 11 1 17 1z"/>
<glyph glyph-name="view" unicode="&#94;" d="M482 261c-4 5-102 118-226 118-124 0-222-113-226-118l-4-5 4-5c4-5 102-118 226-118 124 0 222 113 226 118l4 5z m-226-113c-103 0-191 87-211 108 20 21 108 108 211 108 103 0 191-87 211-108-20-21-108-108-211-108z m0 154c-25 0-46-21-46-46 0-25 21-46 46-46 25 0 46 21 46 46 0 25-21 46-46 46z m0-77c-17 0-31 14-31 31 0 17 14 31 31 31 17 0 31-14 31-31 0-17-14-31-31-31z"/>
<glyph glyph-name="videos" unicode="&#95;" d="M393 482l0-31-274 0 0 24 0 0 0 7-77 0 0-452 76 0 0 7 1 0 0 26 274 0 0-26 1 0 0-7 76 0 0 452z m0-45l0-172-274 0 0 172z m-336 31l47 0 0-424-15 0 0 17-20 0 0-17-12 0z m62-391l0 174 274 0 0-174z m336-33l-13 0 0 17-20 0 0-17-14 0 0 424 47 0 0-424z m-386 409l20 0 0-39-20 0z m0-73l20 0 0-39-20 0z m0-83l20 0 0-39-20 0z m0-80l20 0 0-39-20 0z m0-72l20 0 0-39-20 0z m353 308l20 0 0-39-20 0z m0-73l20 0 0-39-20 0z m0-83l20 0 0-39-20 0z m0-80l20 0 0-39-20 0z m0-72l20 0 0-39-20 0z"/>
<glyph glyph-name="close-big" unicode="&#96;" d="M507 491l-16 16-235-235-235 235-16-16 235-235-235-235 16-16 235 235 235-235 16 16-235 235z"/>
<glyph glyph-name="menu-hrz" unicode="&#102;" d="M94 314c-32 0-58-26-58-58 0-32 26-58 58-58 32 0 58 26 58 58 0 32-26 58-58 58z m0-100c-23 0-42 19-42 42 0 23 19 42 42 42 23 0 42-19 42-42 0-23-19-42-42-42z m165 100c-32 0-58-26-58-58 0-32 26-58 58-58 32 0 58 26 58 58 0 32-26 58-58 58z m0-100c-23 0-42 19-42 42 0 23 19 42 42 42 23 0 42-19 42-42 0-23-19-42-42-42z m159 100c-32 0-58-26-58-58 0-32 26-58 58-58 32 0 58 26 58 58 0 32-26 58-58 58z m0-100c-23 0-42 19-42 42 0 23 19 42 42 42 23 0 42-19 42-42 0-23-19-42-42-42z"/>
<glyph glyph-name="zoom" unicode="&#123;" d="M184 202c-34 0-66 13-90 37-24 24-37 56-37 90 0 34 13 66 37 90 24 24 56 38 90 38 34 0 66-14 91-38 24-24 37-56 37-90 0-34-13-66-37-90-25-24-57-37-91-37z m0 231c-28 0-54-10-73-30-20-20-31-46-31-74 0-28 11-54 31-74 19-19 45-30 73-30 28 0 54 11 74 30 20 20 31 46 31 74 0 28-11 54-31 74-20 20-46 30-74 30z m259-374c-3 0-6 1-9 4l-176 176c-4 5-4 12 0 16 5 5 12 5 17 0l176-176c4-4 4-12 0-16-2-3-5-4-8-4z"/>
<glyph glyph-name="zoomout" unicode="&#124;" d="M441 87l-160 159c18 22 28 49 28 77 0 33-12 63-35 86-23 22-53 35-85 35-33 0-63-13-86-35-22-23-35-53-35-86 0-32 13-62 35-85 23-23 53-35 86-35 28 0 55 10 77 28l159-160c2-2 5-3 8-3 3 0 6 1 8 3 4 4 4 11 0 16z m-322 167c-19 18-29 43-29 69 0 27 10 51 29 70 19 19 43 29 70 29 26 0 51-10 69-29 19-19 29-43 29-70 0-26-10-51-29-69-18-19-43-29-69-29-27 0-51 10-70 29z m118 78l-96 0c-4 0-7-3-7-6 0-4 3-7 7-7l96 0c3 0 6 3 6 7 0 3-3 6-6 6z"/>
<glyph glyph-name="loading" unicode="&#125;" d="M450 241c-1-51-21-99-57-135-76-75-199-75-274 0-76 76-76 199 0 275 72 71 186 75 262 11l-69-18 4-17 99 24-1 0 1 0-20 98-16-4 14-71c-83 71-208 67-286-11-83-82-83-216 0-299 82-82 216-82 298 0 39 39 61 91 62 146z"/>
<glyph glyph-name="goback" unicode="&#126;" d="M254 30l-196 196 196 197 0-129c6-1 14-2 25-2 57 0 151 25 151 188l18 2c1-6 29-157-45-253-34-44-84-69-149-75z m-171 196l153-153 0 97 9 1c63 4 112 27 144 69 34 43 45 101 47 148-32-101-116-114-157-114-21 0-35 3-36 4l-7 1 0 101z"/>
<glyph glyph-name="arrow-head-left" unicode="&#92;" d="M364 35l-227 221 227 221 11-12-214-209 214-209z"/>
<glyph glyph-name="arrow-head-right" unicode="&#57344;" d="M134 6l-13 14 243 236-243 236 13 14 257-250z"/>
<glyph glyph-name="waste2" unicode="&#57345;" d="M437 428l-117 0c1 3 2 6 2 9l0 17c0 15-12 26-26 26l-82 0c-15 0-27-12-27-26l0-17c0-3 1-6 2-9l-114 0c-5 0-9-4-9-8 0-5 4-9 9-9l37 0c-1-3-2-6-2-9l0-346c0-13 11-24 25-24l242 0c14 0 24 11 24 24l0 346c0 3 0 6-1 9l37 0c5 0 9 4 9 9 0 4-4 8-9 8z m-232 9l0 17c0 5 4 9 9 9l82 0c5 0 8-4 8-9l0-17c0-5-3-9-8-9l-82 0c-5 0-9 4-9 9z m183-35l0-346c0-6-5-11-11-11l-242 0c-6 0-11 5-11 11l0 346c0 4 2 7 4 9l256 0c2-2 4-5 4-9z m-207-45c-4 0-7-3-7-6l0-244c0-4 3-7 7-7 3 0 6 3 6 7l0 244c0 3-3 6-6 6z m75 0c-4 0-7-3-7-6l0-244c0-4 3-7 7-7 4 0 7 3 7 7l0 244c0 3-3 6-7 6z m77-257c3 0 6 3 6 7l0 244c0 3-3 6-6 6-4 0-7-3-7-6l0-244c0-4 3-7 7-7z"/>
<glyph glyph-name="close" unicode="&#57346;" d="M384 369l-15 15-113-113-113 113-15-15 113-113-113-113 15-15 113 113 113-113 15 15-113 113z"/>
<glyph glyph-name="up-open" unicode="&#57347;" d="M396 220c6-5 8-12 8-21 0-8-2-15-8-21-13-13-26-13-40 0 0 0-100 96-100 96 0 0-100-96-100-96-14-13-27-13-40 0-6 6-8 13-8 21 0 9 2 16 8 21 0 0 120 115 120 115 5 5 12 8 20 8 8 0 15-3 20-8 0 0 120-115 120-115"/>
<glyph glyph-name="up-open-big" unicode="&#57348;" d="M446 143c0 0-190 184-190 184 0 0-189-184-189-184-9-7-18-7-26 0-8 9-8 17 0 26 0 0 203 200 203 200 9 9 17 9 24 0 0 0 203-200 203-200 8-9 8-17 0-26-9-7-17-7-25 0"/>
<glyph glyph-name="up-open-mini" unicode="&#57349;" d="M169 195c-9-8-17-8-26 0-8 8-8 16 0 25 0 0 101 97 101 97 9 9 17 9 24 0 0 0 101-97 101-97 8-9 8-17 0-25-9-8-17-8-26 0 0 0-87 80-87 80 0 0-87-80-87-80"/>
<glyph glyph-name="pause" unicode="&#57351;" d="M82 30l140 0 0 452-140 0z m18 434l104 0 0-416-104 0z m190 18l0-452 140 0 0 452z m122-434l-104 0 0 416 104 0 0-416z"/>
<glyph glyph-name="download" unicode="&#57352;" d="M137 237l119-119 119 119-9 9-103-103 0 339-14 0 0-339-103 103z m146 164l0-8 150 0 0-354-354 0 0 354 150 0 0 8-159 0 0-371 372 0 0 371z"/>
<glyph glyph-name="camera" unicode="&#117;" d="M479 92l-446 0 0 291 150 0 32 37 83 0 37-37 144 0z m-431 15l417 0 0 261-136 0-37 37-70 0-32-37-142 0z m208 27c-54 0-98 45-98 99 0 54 44 98 98 98 54 0 98-44 98-98 0-54-44-99-98-99z m0 183c-46 0-84-38-84-84 0-46 38-84 84-84 46 0 84 38 84 84 0 46-38 84-84 84z m-179 24l42 0 0-17-42 0z"/>
<glyph glyph-name="uparrow" unicode="&#118;" d="M192 482l0-23 251 0-413-413 16-16 413 413 0-251 23 0 0 290z"/>
<glyph glyph-name="audio-on" unicode="&#119;" d="M27 363l0-213 69 0 155-117 0 446-154-116z m13-200l0 187 53 0 0-187z m198 291l0-396-132 101 0 194z m52-162l-2-1c-3-2-6-3-9-4l-3-2 2-3c7-12 11-26 11-40 0-14-4-27-10-39l-1-2 2-2c0 0 0-1 1-1 1-1 2-2 2-3l1-1c0-1 1-1 2-2l2-3 3 3c9 15 14 32 14 50 0 17-5 33-13 47z m43 38l-2 3-3-3c-2-3-4-6-6-8l-2-2 2-2c15-23 24-49 24-76 0-31-11-61-30-85l-2-2 3-4c1-1 2-2 3-3 1-1 2-2 2-2l3-3 2 3c23 27 34 61 34 96 1 31-9 62-28 88z m36 54l-3 3-2-3c-2-3-4-6-6-9l-1-2 2-2c31-36 48-82 48-129 0-47-17-92-48-128l-2-3 3-2c1-1 3-2 5-4l5-4 2 2c33 39 51 88 51 139 0 52-19 103-54 142z m42 45l-2 2-2-2c-2-1-3-3-5-4l-5-5 3-2c44-48 69-111 69-176 0-61-22-121-62-168l-2-2 2-2c3-2 5-4 7-6l3-3 2 3c43 50 66 113 66 178 0 69-26 136-74 187z"/>
<glyph glyph-name="audio-off" unicode="&#107;" d="M23 358l0-203 66 0 148-112 0 426-147-111z m12-191l0 179 51 0 0-179z m190 278l0-378-127 96 0 186z m263-97l1 1-7 6-93-92-92 92-1 0-6-6 93-93-92-92-1-1 6-6 93 92 93-92 7 6-93 93z"/>
<glyph glyph-name="play" unicode="&#67;" d="M118 481l0-450 276 225z m14-30l239-195-239-195z"/>
<glyph glyph-name="minimise" unicode="&#103;" d="M107 311l0 15 80 0-107 107 10 10 107-107 0 80 15 0 0-105z m200 105l15 0 0-80 107 107 11-10-107-107 80 0 0-15-106 0z m103-201l0-15-79 0 107-107-11-10-107 107 0-80-15 0 0 105z m-198-107l-15 0 0 80-107-107-11 10 107 107-80 0 0 15 106 0z"/>
<glyph glyph-name="pop-arrow-thin" unicode="&#116;" d="M344 422l-13-13 143-144-472 0 0-18 472 0-143-144 13-13 166 166z"/>
<glyph glyph-name="pop-arrow" unicode="&#66;" d="M412 271l-276 0 66 66c5 5 5 15 0 21-6 5-15 5-21 0l-91-92c-6-5-6-15 0-20l91-92c3-2 6-4 10-4 4 0 8 2 11 4 5 6 5 16 0 21l-66 66 276 0c8 0 15 7 15 15 0 8-7 15-15 15z"/>
<glyph glyph-name="addhighlight" unicode="&#99;" d="M130 105c7 8 6 6 22 23 8-8 15-15 15-15 0 0 29 29 65 7l208 229-88 88-236-201c21-36-8-64-8-64 0 0 6-6 15-15-12-12-40-43-49-52z m222 309l64-63-181-197c-27 27-60 60-87 87z m-216-184l90-90c-29 17-57-7-57-7l-39 39c-2 1 24 30 6 58z m-62-155l346 0 0 15-346 0z"/>
<glyph glyph-name="addnotes" unicode="&#81;" d="M431 386c-5 4-11 6-17 6-6 0-12-2-16-6l-37-38 0 6c-24 24-58 57-82 81-85 2-204 2-204 2l0-362 286 0c0 0 0 112 0 210l0 3 2-2 68 66c9 9 9 24 0 34z m-145 21l45-46-45 0z m60-107l-16 16-29-28 0 13-165 0 0-15 164 0-46-45-118 0 0-15 103 0-28-27 0-18-75 0 0-15 106 0 104 104c0-86 0-180 0-180l-256 0 0 332c0 0 107 0 181 0 0-24 0-76 0-76 0 0 50 0 75 0l0-13-15-15 15-15z"/>
<glyph glyph-name="zoom-in" unicode="&#59;" d="M17 60l30-30 94 94-30 31z m284 431c-104 0-189-85-189-190 0-41 13-78 35-109l36-38c32-26 73-42 118-42 105 0 190 85 190 189 0 105-85 190-190 190z m0-336c-81 0-146 65-146 146 0 81 65 147 146 147 81 0 147-66 147-147 0-81-66-146-147-146z m19 208l-42 0 0-43-43 0 0-43 43 0 0-42 42 0 0 42 43 0 0 43-43 0z"/>
<glyph glyph-name="zoom-outonlinechapters" unicode="&#57350;" d="M17 60l30-30 94 94-30 31z m284 431c-104 0-189-85-189-190 0-41 13-78 35-109l36-38c32-26 73-42 118-42 105 0 190 85 190 189 0 105-85 190-190 190z m0-336c-81 0-146 65-146 146 0 81 65 147 146 147 81 0 147-66 147-147 0-81-66-146-147-146z m-66 165l128 0 0-43-128 0z"/>
<glyph glyph-name="capitulosonline" unicode="&#57353;" d="M480 337l-15 0 0 77c0 0-101 8-186-51 0 0-53-9-53 42 0 51 44 53 44 53 0 0 45 6 45-38 0 0-5-25-18-24-21 2-5 36-3 41 0 0-6 7-17 7-18 0-39-12-36-39 1-24 18-26 18-26 0 0 15 2 20 13 0 0 4-6 15-11 7-6 37 11 37 39 3 39-33 53-60 53-27 0-65-18-62-71 0 0-37 36-89 51l0-40-75 1 0-75-21-2c0 0-9 0-9-10l0-244c0 0-3-14 15-15l176 0c0 0 6 0 9-6 5-6 11-23 44-23 33 0 42 21 42 21 0 0 3 8 15 8 12 0 164 0 164 0 0 0 17-5 17 18 0 22 0 236 0 236 0 0 3 15-17 15z m-218 61c-8 0-8 9-8 9 2 25 20 21 20 21 0-18-4-29-12-30z m-6-71c0 0 0-163 0-167 0-8 15-9 15 0 0 15 0 168 0 168 0 0 71 82 181 71l0-269c0 0-97 18-188-44 0 0-53 77-128 102l0 241c0 0 70-28 120-102z m-196 72c24 0 60-6 60-6l0-214c74-31 118-89 118-89-83 59-178 36-178 36z m410-316c-14 0-160 0-160 0 0 0-12-2-16-11-5-10-41-36-67-1-10 15-19 12-19 12l-166 0c0 0-12-2-12 13 0 15 0 220 0 220 0 0 0 9 8 9 7 0 10 0 10 0l0-212c0 0 41 7 80 1 42-6 96-24 122-46 0 0 8-11 21 0 0 0 69 65 196 43l0 213 6 0c0 0 9 0 9-11 0-10 0-218 0-218 0 0 1-12-12-12z"/>
<glyph glyph-name="align" unicode="&#57355;" d="M316 384l-211 0 0-15 211 0z m-211-60l0-15 302 0 0 15z m226-60l-226 0 0-16 226 0z m-226-76l256 0 0 15-256 0z m0-60l136 0 0 15-136 0z m302 354l-302 0c-42 0-75-33-75-75l0-302c0-42 33-75 75-75l302 0c42 0 75 33 75 75l0 302c0 42-33 75-75 75z m60-362c0-42-33-75-75-75l-272 0c-42 0-75 33-75 75l0 272c0 42 33 75 75 75l272 0c42 0 75-33 75-75z"/>
<glyph glyph-name="alignleft" unicode="&#57354;" d="M389 274l-281 0 0-27 281 0z m-91 78l-190 0 0-27 190 0z m91 79l-281 0 0-27 281 0z m-91-235l-190 0 0-27 190 0z m-253 301l0-482 422 0 0 482z m410-470l-398 0 0 458 398 0c0 0 0-458 0-458z m-66 90l-281 0 0-27 281 0z"/>
<glyph glyph-name="bookdefault-new" unicode="&#57356;" d="M253 274l-145 0 0-27 145 0z m136 78l-281 0 0-27 281 0z m0 79l-281 0 0-27 281 0z m-136-235l-145 0 0-27 145 0z m-208 301l0-482 422 0 0 482z m410-470l-398 0 0 458 398 0c0 0 0-458 0-458z m-202 90l-145 0 0-27 145 0z m29 62l34-53 88 91-17 15-66-72-20 33z"/>
<glyph glyph-name="justified" unicode="&#57357;" d="M389 274l-281 0 0-27 281 0z m0 78l-281 0 0-27 281 0z m0 79l-281 0 0-27 281 0z m0-235l-281 0 0-27 281 0z m-344 301l0-482 422 0 0 482z m410-470l-398 0 0 458 398 0c0 0 0-458 0-458z m-66 90l-281 0 0-27 281 0z"/>
<glyph glyph-name="view-instructions" unicode="&#57358;" d="M253 492c65 0 120-22 167-67 46-45 70-100 72-165 0-65-22-121-68-167-45-47-100-71-165-73-65 0-121 22-167 68-47 45-71 100-72 165-1 65 21 121 67 167 46 47 101 71 166 72m-1-379c10 0 19 3 25 9 6 7 10 15 10 24 0 11-2 19-9 26-6 6-15 9-25 9 0 0-1 0-1 0-10 0-18-3-24-9-7-6-10-14-11-24 0-10 3-18 10-25 6-6 14-10 24-10 0 0 1 0 1 0m85 168c9 11 13 24 13 40 0 26-9 46-27 59-18 13-41 19-69 19-22 0-40-4-53-13-24-14-36-39-37-75 0 0 0-2 0-2 0 0 56 0 56 0 0 0 0 2 0 2 0 9 3 18 8 28 6 8 15 12 28 12 14 0 23-3 27-10 5-7 8-14 8-23 0-6-3-13-8-20-3-4-7-8-11-10 0 0-3-2-3-2-2-2-4-4-8-6-3-2-7-5-10-8-4-2-7-5-11-8-4-3-7-6-9-9-4-7-7-20-9-40 0 0 0-4 0-4 0 0 56 0 56 0 0 0 0 2 0 2 0 4 0 9 2 14 2 7 6 13 14 19 0 0 14 9 14 9 16 12 25 20 29 26"/>
</font>
</defs>
</svg>
